#TITLE:Helleluyah, God is Dead by Young_editer@hotmail.com;
#ARTIST:Vader;
#FILE:04-vader-helleluyah_(god_is_dead).mp3;
#BPM:60.003;
#GAP:-1110;
#SAMPLESTART:33.540;
#SAMPLELENGTH:12.000;
#CDTITLE:Nepex-Chart.bmp;
#FREEZE:658.000=500.000,660.000=750.000,1608.000=500.000,1610.000=750.000,1708.000=1750.000;
#CHANGEBPM:32.000=120.006,288.000=240.011,544.000=120.006,726.000=240.011,1494.000=120.006,1708.000=240.011,2000.000=60.003,2016.000=120.006;
#SINGLE:ANOTHER:11:
{00000000000000000008!800000000000000000000000000000000000000000000}
{0000000000000000000000000000000000000000000000000000000000000008}
6!60000000
{0000000000000000000000000000000000000000000000000000000000000060}
4!40000000
{0000000000000000000000000000000000000000000000006020602060206010}
8!80000000
{0000000000000000000000000000000000000000000000000000000000000080}
2!20000000
{0000000000000000000000000000000080006040604000006040604060406010}
6!60001700
{70000000A0000000000000000000000000000000804080408000200080002060}
4!40009300
{30000000A0000000000000000000000000000000000000006020602060206010}
8!8000B300
{3000000010000000000000000000000040604060406040604060406040000080}
{4!4000000000000000000000000000000000000000000000000000000000000040}
{6!602080208040802080408020904060206080208060402080B0000000B0000000}
37A337AB
397A71B3
(70A0703090B07282)
(628682842828B000)
7A39B3B7
A37A739B
(70A0703090B0A646)
(2868284828429000)
7A9B7A73
9BA7A39B
(A0703070A0901828)
(684868262428B000)
A9B7A73B
397A7AB7
391A97AB
(8282646482826464)
3!60004000
(4000000048284249)
1!40008000
{2000600080002000800060002000800060806000800020006000800060008040}
3!20006000
{4000000000000000000000000000000080000000000000000000000000000020}
{B!6000000000000000000000000000000020000000000000000000000000000060}
(1!44A0601!4000000060)
00020006
{0000000000000000000000409!6000000000000000000000000000000020000000}
{0000000000000000000000608000400060002000800060008000200080408000}
{2000800040604000200060003000000070000000A00000003000000030000000}
7AB397A7
1B37A739
(B072826286828428)
(28B00070A03090B0)
3B7A37A7
39B7A739
(B0A6462868284828)
(42900070A090B070)
A739BA7A
39BA737A
(9018286848682624)
(28B000A090B070A0)
73B397A7
AB7391A9
(70A0B0A480206020)
[800600800402!2020800800800]
[800806!6060200200200200200]
22284446
48284286
[200800600804!4040600600600]
[600608!8080200200200200200]
[200200200204!4040800800800]
`80000000000000000000000080000000000000000000000080000000000000000000000080000000000000004!40000000000000004000000000000000600000000000000000000000600000000000000000000000600000000000400000000000'
[600600600602!2020800800800]
[800806!6060200200200200200]
22284446
48284286
[200800600804!4040600600600]
[600608!8080200200200200200]
[200200200204!4040800800800]
[800800800804!4040600600600]
[600600600602!2020800800800]
`80000000000000000000000080000000000000006!600000000000000060000000000000002!2000000000002000000000002!2000000000002000000000002!2000000000002000000000002!2000000000002000000000002!200000000000200000000000'
(2!222!222!228!8040404090)
48284286
[200800600804!4040600600600]
[600608!8080200200200200200]
[200200200204!4040800800800]
`80000000000000000000000080000000000000000000000080000000000000000000000080000000000000004!40000000000000004000000000000000600000000000000000000000600000000000000000000000600000000000400000000000'
[600600600602!2020800800800]
[800806!6060200200200200200]
22284446
48284286
[200800600804!4040600600600]
[600608!8080200200200200200]
[200200200204!4040800800800]
(8080808082606060)
6666!60002
(0000004000000084)
{800020004000200080004060A!2000000000000000000000000000000060000000}
{0000000000000000000000004000600080006000400080006000800040604000}
{8000600080004000600040209!8000000000000000000000000000000040000000}
00060002
{000000000000000000000080B!4000000000000000000000000000000020000000}
{0000000000000000000000403!60006000A0000000400000003!6000000000000000}
00800040
{0000000000000000200080002000800040008000200080601!2000000000000000}
(0000800000006848)
{400060008000600040804000800060008000400060008020B!4000000000000000}
80608020
{800000000000000060000000000000002000000000000040A000000000000000}
(4282862868284868)
(2842848684824828)
37A337AB
397A71B3
(70A0703090B07282)
(628682842828B000)
7A39B3B7
A37A739B
(70A0703090B0A646)
(2868284828429000)
7A9B7A73
9BA7A39B
(A0703070A0901828)
(684868262428B000)
A9B7A73B
397A7AB7
391A97AB
(8282646482826464)
<8!83!3>0000000
<83>0000000
;
#SINGLE:MANIAC:13:
{00000000000000000008!800000000000000000000000000000000000000000000}
{0000000000000000000000000000000000000000000000000000000000000008}
(6!6000804020024080)
{2000000000000000800000000000000020000000800000002000000080000060}
(4!4000602060806008)
{2000000060000000800000006000000080000000200000006020602060206010}
(8!8000206040026040)
{6000000000000000200000000000000060000000400000002000000040000080}
(2!2000608060408004)
{6000000080000000400000006000000080006040604000006040604060406010}
6!60481702
{70000000A0000000000000000000000040000000804080408000200080002060}
4!40629368
{30000000A0000000600000000000000020000000800000006020602060206010}
8!8040B300
{3000000010000000600000002000000040604060406040604060406040000080}
{4!4000000000000000000000000000000000000000000000000000000000000040}
{6!602080208040802080408020904060206080208060402080B0000000B0000000}
(8888888888888888)
(8888888822222222)
(4444444444448282)
(628682842828B000)
(2222222222222222)
(4444444466666666)
(8888888888888646)
(2868284828429000)
(4444444444444444)
(4444444466666666)
(2222222222222828)
(684868262428B000)
(6666666666666666)
(8888888844444444)
(8888888888888888)
(8282646482826464)
3!68281824
(A080402048284249)
1!46289286
{2000600080002000800060002000800060806000800020006000800060008040}
3!2868B486
{7000000080000000400000006000000070000000600000008000000040000020}
{9!6000000020000000800000004000000010000000800000004000000080000060}
(1!44A0901!40802060A0)
62838283
{8000000060000000200000409!6000000040000000800000004000000010000000}
{8000000020000000400000608000400060002000800060008000200080408000}
{2000800040604000200060008000800080008000800080008000800080008000}
(8888888888888822)
(2222224444444444)
(4482826286828428)
(28B0002222222222)
(2222224444444466)
(6666668888888888)
(8886462868284828)
(4290004444444444)
(4444444444444466)
(6666662222222222)
(2228286848682624)
(28B0006666666666)
(6666668888888844)
(4444442222222222)
(2222228888888888)
`80000000000080000000000080000000000080000000000080000000000080000000000040000000000000002!20000000000000002000000000000000800000000000000000000000800000000000000000000000800000000000000000000000'
[800806!6060200200200200200]
22284446
48284286
[200800600804!4040600600600]
[600608!8080200200200200200]
[200200200204!4040800800800]
`80000000000000000000000080000000000000000000000080000000000000000000000080000000000000004!40000000000000004000000000000000600000000000000000000000600000000000000000000000600000000000400000000000'
[600600600602!2020800800800]
[800806!6060200200200200200]
22284446
48284286
[200800600804!4040600600600]
[600608!8080200200200200200]
[200200200204!4040800800800]
[800800800804!4040600600600]
[600600600602!2020800800800]
`80000000000000000000000080000000000000006!600000000000000060000000000000002!2000000000002000000000002!2000000000002000000000002!2000000000002000000000002!2000000000002000000000002!200000000000200000000000'
(2!222!222!228!8040404090)
48284286
[200800600804!4040600600600]
[600608!8080200200200200200]
[200200200204!4040800800800]
`80000000000000000000000080000000000000000000000080000000000000000000000080000000000000004!40000000000000004000000000000000600000000000000000000000600000000000000000000000600000000000400000000000'
[600600600602!2020800800800]
[800806!6060200200200200200]
22284446
48284286
[200800600804!4040600600600]
[600608!8080200200200200200]
[200200200204!4040800800800]
(8080808082606060)
6666!6484A
(8020807020802084)
{800020004000200080004060A!20000000600000004000000080000000B0000000}
{8000000040000000800000004000600080006000400080006000800040604000}
{8000600080004000600040209!80000000200000006000000020000000B0000000}
24616243
{400000006000000020000080B!4000000080000000200000008000000030000000}
{8000000060000000800000403!60006000A0000000700000003!6000000040000000}
82724818
(4080282848291!2080)
(6040904060406848)
{400060008000600040804000800060008000400060008020B!4000000000000000}
A03090A0
{90000000000000003000000020000000A0000000000000409000000000000000}
(4282862868284868)
(2842848684824828)
(6666666666666666)
(6666666644444444)
(8888888888880282)
(628682842828B000)
(2222222222222222)
(4444444488888888)
(2222222222222646)
(2868284828429000)
(4444444444444444)
(4444444466666666)
(2222222222222828)
(684868262428B000)
(6666666666666666)
(2222222244444444)
(8888888888888888)
(8282646482826464)
<8!83!3>0000000
<83>0000000
;
#SINGLE:SMANIAC:15:
{00000000000000000008!800000000000000000000000000000000000000000000}
{0000000000000000000000000000000000000000000000000000000000000008}
(6!6000804020024080)
{2000000000000000800000000000000020000000800000002000000080000060}
(4!4000602060806008)
{2000000060000000800000006000000080000000200000006020602060206010}
(8!8000206040026040)
{6000000000000000200000000000000060000000400000002000000040000080}
(2!2000608060408004)
{6000000080000000400000006000000080006040604000006040604060406010}
6!60481702
{70000000A0000000000000000000000040000000804080408000200080002060}
4!40629368
{30000000A0000000600000000000000020000000800000006020602060206010}
8!8040B300
{3000000010000000600000002000000040604060406040604060406040000080}
{4!4000000000000000000000000000000000000000000000000000000000000040}
{6!602080208040802080408020904060206080208060402080B0000000B0000000}
(8787878787878787)
(8787878723232323)
(4B4B4B4B4B4B8182)
(B28672843828B000)
(2323232323232323)
(474747476B6B6B6B)
(8989898989898346)
(1868384838429000)
(4747474747474747)
(4747474769696969)
(2121212121212928)
(3848B826A428B000)
(6363636363636363)
(8989898941414141)
(8787878787878787)
(8182946492829464)
3!68281824
(A080402048284249)
1!46289286
{2000600080002000800060002000800060806000800020006000800060008040}
3!2868B486
{7000000080000000400000006000000070000000600000008000000040000020}
{9!6000000020000000800000004000000010000000800000004000000080000060}
(1!44A0901!40802060A0)
62838283
{8000000060000000200000409!6000000040000000800000004000000010000000}
{8000000020000000400000608000400060002000800060008000200080408000}
{2000800040604000200060008000700080007000800070008000700080007000}
(8787878787878723)
(2323234747474747)
(478382B286728438)
(28B0002323232323)
(2323234141414163)
(6363638A8A8A8A8A)
(8A83461868184838)
(4290004747474747)
(474747474747476B)
(6B6B6B2323232323)
(232928B848B826A4)
(28B0006B6B6B6B6B)
(6B6B6B8A8A8A8A47)
(4747472A2A2A2A2A)
(2A2A2A8888789878)
`90000000000080000000000070000000000080000000000090000000000080000000000040000000000000002!20000000000000002000000000000000800000000000000000000000800000000000000000000000700000000000000000000000'
[800806!6060100200200200A00]
22294443
4829428B
[200700600A04!4040600600B00]
[600608!8080A00200200200300]
[200200200A04!4040800800900]
(8080809070A0B064)
[600600600602!2020800800700]
[800806!6060100200200200A00]
22294443
4829428B
[100900300904!4040600600300]
[600608!8080100200200200300]
[200200200304!4040800800900]
888A1A39
[B00A00B00902!2020800800700]
`80000000000000000000000080000000000000006!60000000000000006000000000000000A!2000000000002000000000002!2000000000002000000000002!2000000000002000000000002!200000000000200000000000A!200000000000200000000000'
(2!222!222!229!80404040<83>0)
4829428B
[200700600A04!4040600600900]
[600608!8080100200200200300]
[200200200A04!4040800800900]
(808080A010307064)
[600600600602!2020800800700]
[800806!6060100200200200A00]
22294443
4829428B
[100A00B00A04!4040600600B00]
[600608!8080100200200200300]
[200200200A04!4040800800900]
(808080708260B0A0)
B396!6484A
(8020807020802084)
{800020004000200080004060A!20000000600000004000000080000000B0000000}
{8000000040000000800000004000600080006000400080006000800040604000}
{8000600080004000600040209!80000000200000006000000020000000B0000000}
24616243
{400000006000000020000080B!4000000080000000200000008000000030000000}
{8000000060000000800000403!60006000A0000000700000003!6000000040000000}
82724818
(4080282848291!2080)
(6040904060406848)
{400060008000600040804000800060008000400060008020B!4000000000000000}
A03090A0
{90000000000000003000000020000000A0000000000000409000000000000000}
(4282862868284868)
(2842848684824828)
(6363636363636363)
(6363636341414141)
(8A8A8A8A8A8A0182)
(B28672843828B000)
(2A2A2A2A2A2A2A2A)
(4B4B4B4B89898989)
(2121212121212946)
(1868384838429000)
(4147414741474147)
(4147414763696369)
(212A212A212A2728)
(38483826A428B000)
(6969696969696969)
(2A2A2A2A4B4B4B4B)
(8989898989898989)
(8382646482826464)
<8!83!3>0000000
<83>0000000
;
#SINGLE:BASIC:10:
{00000000000000000008!800000000000000000000000000000000000000000000}
{0000000000000000000000000000000000000000000000000000000000000008}
60000000
00000000
40000000
{0000000000000000000000000000000000000000000000006020602060206020}
80000000
00000000
20000000
{0000000000000000000000000000000080006040604000006040604060406040}
60001700
{70000000A0000000000000000000000000000000804080408000200080002000}
40009300
{30000000A0000000000000000000000000000000000000006020602060206020}
8000B300
{3000000010000000000000000000000040604060406040604060406040000000}
40000000
{602080002000802040008000406020008000208040002000B0000000B0000000}
82848286
82682864
28248284
90A0B030
84282862
86828486
82628482
9070A0B0
48264826
46286848
26828628
B03070B0
62682862
82868482
64628482
84628462
80004000
(4000000048284248)
40008000
{2000600080002000800060002000800060806000800020006000800060008000}
20006000
40008000
40002000
1AB10006
00020006
00060002
{0000000000000000000000008000400060002000800060008000200080408000}
{2000800040604000200060004000000080000000200000006000000040000000}
62868482
42842848
2843070A
03082846
26828248
28462828
42830709
0A062628
28482868
26824282
82670A03
0B028284
62868486
82624262
(8040208480206020)
[800600800402!2020800800800]
[800806!6060200200200200200]
22284440
40284286
[200800600804!4040600600600]
[600608!8080200200200200200]
[200200200204!4040800800800]
[800800800804!4040600600600]
[600600600602!2020800800800]
[800806!6060200200200200200]
22284440
60284286
[200800600804!4040600600600]
[600608!8080200200200200200]
[200200200204!4040800800800]
[800800800804!4040600600600]
[600600600602!2020800800800]
`80000000000000000000000080000000000000006!600000000000000060000000000000002!2000000000002000000000002!2000000000002000000000002!2000000000002000000000002!2000000000002000000000002!200000000000200000000000'
(2!222!222!228!8040404080)
40684286
[200800600804!4040600600600]
[600608!8080200200200200200]
[200200200204!4040800800800]
[800800800804!4040600600600]
[600600600602!2020800800800]
[800806!6060200200200200200]
22284440
60484286
[200800600804!4040600600600]
[600608!8080200200200200200]
[200200200204!4040800800800]
[800800800802!2020600600600]
66660002
(0000004000000084)
(8242848000000060)
{0000000000000000000000004000600080006000400080006000800040604000}
(8684648000000040)
00060002
000B0002
(0000003!66A0403000)
00800040
(0000282848284000)
(0000800000006848)
{4000600080006000408040008000600080004000600080006000000000000000}
80608020
806020A0
(6260208046406020)
(8480206026208040)
62628284
28246262
68628684
307030B0
28628684
84284862
86848242
9070A090
46264828
68282624
28486242
907030B0
82642824
62868286
86848264
(8282646482826464)
<8!83!3>0000000
<83>0000000
;
